<?xml version="1.0" standalone="no"?>
<!DOCTYPE svg PUBLIC "-//W3C//DTD SVG 1.1//EN" "http://www.w3.org/Graphics/SVG/1.1/DTD/svg11.dtd" >
<svg xmlns="http://www.w3.org/2000/svg">
<metadata>Generated by IcoMoon</metadata>
<defs>
<font id="trawell-font" horiz-adv-x="1024">
<font-face units-per-em="1024" ascent="896" descent="-128" />
<missing-glyph horiz-adv-x="1024" />
<glyph unicode="&#x20;" horiz-adv-x="400" d="" />
<glyph unicode="&#xe900;" glyph-name="tiktok" horiz-adv-x="896" d="M896 476.18c-0.299-0.001-0.652-0.001-1.005-0.001-91.768 0-176.664 29.423-245.768 79.349l1.233-0.848v-357.44c-0.068-179.496-145.594-324.981-325.1-324.981-179.548 0-325.1 145.552-325.1 325.1s145.552 325.1 325.1 325.1c15.745 0 31.228-1.119 46.375-3.283l-1.735 0.203v-179.78c-13.386 4.362-28.789 6.877-44.78 6.877-82.423 0-149.24-66.817-149.24-149.24s66.817-149.24 149.24-149.24c82.423 0 149.24 66.817 149.24 149.24 0 0.001 0 0.002 0 0.004v0 698.76h176c-0.005-0.592-0.008-1.292-0.008-1.993 0-14.966 1.356-29.615 3.953-43.83l-0.225 1.484c12.99-67.689 52.414-124.345 106.88-159.865l0.94-0.575c37.691-25.239 84.063-40.28 133.949-40.28 0.018 0 0.036 0 0.054 0h-0.003z" />
<glyph unicode="&#x1097b;" glyph-name="angle-down-1" horiz-adv-x="448" d="M224 256l-224 224 72 64 152-152 152 152 72-64z" />
<glyph unicode="&#x1097c;" glyph-name="angle-left-1" horiz-adv-x="288" d="M0 384l224 224 64-72-152-152 152-152-64-72z" />
<glyph unicode="&#x1097d;" glyph-name="angle-right-1" horiz-adv-x="288" d="M288 384l-224-224-64 72 152 152-152 152 64 72z" />
<glyph unicode="&#x1097e;" glyph-name="angle-up-1" horiz-adv-x="448" d="M224 512l224-224-72-64-152 152-152-152-72 64z" />
<glyph unicode="&#x1099e;" glyph-name="pin-1" horiz-adv-x="1022" d="M684 892l338-338-44-46c-18-18-54-32-80-32-10 0-28 4-38 8l-144-146v-182l-100-100-192 192-366-364c-6-8-18-12-26-12-18 0-32 14-32 32 0 8 4 20 12 26l368 364-192 192 98 100h182l144 146c-4 10-6 28-6 38 0 26 14 60 32 78z" />
<glyph unicode="&#x109a7;" glyph-name="search-1" d="M946-14v0c8-8 14-24 14-34 0-26-22-48-48-48-10 0-26 6-34 14l-312 314c-52-40-148-72-214-72-194 0-352 158-352 352s158 352 352 352 352-158 352-352c0-66-32-162-72-214v2zM352 256c142 0 256 114 256 256s-114 256-256 256-256-114-256-256 114-256 256-256z" />
<glyph unicode="&#x109aa;" glyph-name="share-1" horiz-adv-x="964" d="M800 224v0c88 0 160-72 160-160s-72-160-160-160-160 72-160 160c0 12 2 30 6 42h-4l-354 178-2 2c-26-34-82-62-126-62-88 0-160 72-160 160s72 160 160 160c44 0 100-28 126-62l360 180c-4 12-6 30-6 42 0 90 72 162 162 162s162-72 162-162-72-160-162-160c-44 0-102 28-128 62l-360-182c4-12 6-28 6-40s-2-30-6-42h4l354-178 2-2c26 34 82 62 126 62v0z" />
<glyph unicode="&#x109b6;" glyph-name="camera-shutter-1" d="M256 450l-136 234-6 10c80 94 244 170 366 170v0h20zM904 608h-482l140 236 6 12c126-24 276-134 336-248zM932 544c16-44 28-114 28-160 0-76-32-190-72-254l-240 414h284zM704 318l134-234 6-10c-78-94-242-170-364-170h-22zM56 160h478l-138-236-8-10c-124 24-272 134-332 246zM312 224h-284c-16 42-28 114-28 160 0 76 32 188 72 252z" />
<glyph unicode="&#x109b7;" glyph-name="cart-1" horiz-adv-x="964" d="M288 16c0 36 28 64 64 64s64-28 64-64-28-64-64-64-64 28-64 64zM704 16c0 36 28 64 64 64s64-28 64-64-28-64-64-64-64 28-64 64zM344 144h-34l-144 608h-134c-18 0-32 14-32 32s14 32 32 32h162c14 0 26-10 30-24l60-264h680l-124-384h-496z" />
<glyph unicode="&#x109b8;" glyph-name="envelope-1" d="M914 704l-434-396-432 396h866zM480 222l480 438v-596h-960v596z" />
<glyph unicode="&#x109b9;" glyph-name="exit-1" horiz-adv-x="608" d="M608 620l-236-236 236-236-68-68-236 236-236-236-68 68 236 236-236 236 68 68 236-236 236 236z" />
<glyph unicode="&#x109ba;" glyph-name="menu-1" d="M0 768h960v-128h-960v128zM0 448h960v-128h-960v128zM0 128h960v-128h-960v128z" />
<glyph unicode="&#x109bb;" glyph-name="music-1" horiz-adv-x="800" d="M256 756l544 144v-744c0-88-72-160-160-160s-160 72-160 160 72 160 160 160h96v340l-416-112v-516c0-88-72-160-160-160s-160 72-160 160 72 160 160 160h96v568z" />
<glyph unicode="&#x109bc;" glyph-name="play-1" horiz-adv-x="832" d="M0 864l832-480-832-480v960z" />
<glyph unicode="&#x109bd;" glyph-name="plus-1" horiz-adv-x="672" d="M672 432v-96h-288v-288h-96v288h-288v96h288v288h96v-288h288z" />
<glyph unicode="&#x109be;" glyph-name="time-1" d="M512 896c282 0 512-230 512-512s-230-512-512-512-512 230-512 512 230 512 512 512zM730 236c2 4 4 8 4 12 0 8-6 16-12 20l-194 114v362c0 14-10 24-24 24s-24-10-24-24v-390l218-126c4-2 8-4 12-4 8 0 16 6 20 12z" />
<glyph unicode="&#x109bf;" glyph-name="url-1" horiz-adv-x="958" d="M470 204v0c18-6 46-10 64-10 10 0 28 2 38 4-2-4-6-6-10-10l-224-226c-32-32-96-56-140-56-110 0-198 88-198 198 0 44 24 108 56 140l226 224c32 32 94 58 140 58 96 0 186-76 198-172-18-16-54-32-78-34v6c0 68-54 122-122 122-28 0-66-16-86-36l-222-222c-20-20-34-56-34-84 0-68 54-122 122-122 28 0 64 14 84 34zM900 806c32-32 58-94 58-140s-26-110-58-142l-224-224c-32-32-96-58-142-58-74 0-156 54-184 124 16 16 48 32 70 36 16-46 68-82 116-82 26 0 64 16 84 34l224 224c20 20 36 58 36 86 0 68-54 122-122 122-28 0-66-16-86-36l-222-222-2-4c-8 0-18 2-26 2-20 0-52-6-72-14v0c8 22 28 52 44 68l224 226c32 32 96 58 142 58s108-26 140-58z" />
<glyph unicode="&#x109c0;" glyph-name="user-1" horiz-adv-x="948" d="M762 80c82-16 166-94 186-176h-948c20 82 102 162 186 176 160 28 160 80 160 112v52c-58 52-96 138-96 236v154c0 166 118 230 224 230s224-64 224-230v-154c0-98-38-184-96-236v-52c0-32 0-82 160-112z" />
</font>
</defs>
</svg>
